社区应用 最新帖子 精华区 社区服务 会员列表 统计排行 银行 婚姻殿堂 每日签到 勋章中心
  • 3107阅读
  • 3回复

[资源][04.28][115 30D+][U2-Rip]薬師寺涼子の怪奇事件簿[DVDRip][3.7G]

楼层直达
级别: 比较有爱
发帖
538
京都币
1527
多非角
339
推到
11
NC道具交易币
1
激萌
91
NC
216
存在感
0
云聊:

药师寺凉子是警视厅刑事部参事官,拥有“天使脸蛋、魔鬼身材”的她,是全日本最大的保全公司JACES的社长的千金,是警界上下敬称为“驱魔娘娘”的传奇人物,凡到之处,皆有光怪陆离的奇事发生。故事主要讲述了这位警视厅口中的危险人物,如何发挥其惊人手段,逐一解决难题。

【STAFF】

原作:田中芳树·垣野内成美
漫画连载:「月刊マガジンZ」(讲谈社)
小说刊行:讲谈社·光文社·祥传社
监督:岩崎太郎
系列构成:川崎ヒロユキ
角色设定·总作画监督:谷口淳一郎
服装设计·总作画监督:佐佐木敦子
道具设定:真树孝雄
美术监督:绪续学(KUSANAGI)
美术设定:金平和茂(KUSANAGI)
色彩设计:石黑けい
音响监督:若林和弘
摄影监督:伊藤邦彦
音乐制作:KATSU(angela)
作曲:幸山リオ
编曲:幸山リオ·KATSU
动画制作:动画工房

【CAST】

药师寺凉子:生天目仁美
泉田准一郎:木内秀信
室町由纪子:桑岛法子
岸本明:野岛健儿
贝冢さとみ:福圆美里
丸冈警部:稻叶实
安部真理夫:かわのをとや
若林健太郎:大黑和弘
野长濑一马:平川大辅
石动琉璃子:岛本须美
マリアンヌ(Marianne):佐藤聪美
リュシエンヌ(Lucienne):クリステル·チアリ(Christelle Ciari)

1-13+2个sp
文件信息:
引用
F:\动画\薬師寺涼子の怪奇事件簿\[U2-Rip] 薬師寺涼子の怪奇事件簿 DVD 02.mkv
   General
      Complete name : F:\动画\薬師寺涼子の怪奇事件簿\[U2-Rip] 薬師寺涼子の怪奇事件簿 DVD 02.mkv
      Format : Matroska
      File size : 260 MiB
      Duration : 23mn 50s
      Overall bit rate : 1 525 Kbps
      Encoded date : UTC 2009-08-08 11:21:23
      Writing application : mkvmerge v1.7.0 ('What Do You Take Me For') built on Apr 28 2006 17:20:19
      Writing library : libebml v0.7.7 + libmatroska v0.8.0
   Video #1
      ID : 1
      Format : AVC
      Format/Info : Advanced Video Codec
      Format profile : High@L3.1
      Format settings, CABAC : Yes
      Format settings, ReFrames : 8 frames
      Muxing mode : Container profile=Unknown@3.1
      Codec ID : V_MPEG4/ISO/AVC
      Duration : 23mn 48s
      Bit rate : 1 046 Kbps
      Width : 712 pixels
      Height : 478 pixels
      Display aspect ratio : 16/9
      Original display aspect ratio : 1.490
      Frame rate : 23.976 fps
      Resolution : 24 bits
      Colorimetry : 4:2:0
      Scan type : Progressive
      Bits/(Pixel*Frame) : 0.128
      Stream size : 178 MiB (69%)
      Writing library : x264 core 67 r1134M b8808bf
      Encoding settings : cabac=1 / ref=8 / deblock=1:-1:-1 / analyse=0x3:0x133 / me=umh / subme=8 / psy_rd=1.0:0.0 / mixed_ref=1 / me_range=32 / chroma_me=1 / trellis=2 / 8x8dct=1 / cqm=0 / deadzone=21,11 / chroma_qp_offset=-2 / threads=3 / nr=0 / decimate=1 / mbaff=0 / bframes=5 / b_pyramid=1 / b_adapt=2 / b_bias=0 / direct=3 / wpredb=1 / keyint=250 / keyint_min=25 / scenecut=40 / rc=crf / crf=16.0 / qcomp=0.60 / qpmin=10 / qpmax=51 / qpstep=4 / ip_ratio=1.40 / pb_ratio=1.30 / aq=1:1.00
   Audio #2
      ID : 2
      Format : AC-3
      Format/Info : Audio Coding 3
      Codec ID : A_AC3
      Duration : 23mn 50s
      Bit rate mode : Constant
      Bit rate : 448 Kbps
      Channel(s) : 2 channels
      Channel positions : L R
      Sampling rate : 48.0 KHz
      Stream size : 76.4 MiB (29%)

下载地址:
此帖售价 2 京都币,已有 0 人购买 [记录] [购买]
购买后,将显示帖子中所有出售内容。
若发现会员采用欺骗的方法获取财富,请立刻举报,我们会对会员处以2-N倍的罚金,严重者封掉ID!
此段为出售的内容,购买后显示
级别: 稍稍有爱
发帖
16
京都币
39
多非角
3
推到
0
NC道具交易币
0
激萌
0
NC
2
存在感
0
云聊:
只看该作者 1 发表于: 2011-04-29
薬師寺涼子..我還沒有看
级别: 有点爱
发帖
8
京都币
6
多非角
1
推到
0
NC道具交易币
0
激萌
1
NC
0
存在感
0
云聊:
只看该作者 2 发表于: 2011-04-29
多谢楼主的动画啊。
级别: 比较有爱
发帖
598
京都币
598
多非角
39
推到
0
NC道具交易币
0
激萌
0
NC
3
存在感
0
云聊:
只看该作者 3 发表于: 2012-08-08
感谢楼主分享了!!!!!
喜欢手绘漫画的朋友进:http://zhaimf.taobao.com/
快速回复

限100 字节
 
上一个 下一个